Nat Geo Wild: Дикий Запад / The Wild West [серии 1-3 из 3] (Энди Митчел) [2012 г., Документальный, познавательный, природа, HDTVRip]

Ответить на тему
 
Автор Сообщение

skorpionN ®

Пол: Мужской

Стаж: 1 год 9 месяцев

Сообщений: 2179

Откуда: Ukraina

Создавать темы 31-Май-2013 12:58

[Цитировать]

Nat Geo Wild: Дикий Запад / The Wild West [серии 1-3 из 3]
Год выпуска: 2012 г.
Страна: США, National Geographic Television
Жанр: Документальный, познавательный, природа
Продолжительность: 3x~00:45:02
Перевод: Студийный (одноголосый закадровый) - АРК ТВ
Cубтитры: нет
Режиссер: Энди Митчел, Саймон Бойс
Описание: Перед тем как на Дикий Запад пришли ковбои и задолго до того, как здесь началась золотая лихорадка, в этих краях были совсем другие преступники, по-настоящему дикие животные, которые называют Америку своим домом. Морские слоны, которые дерутся до крови; черные и бурые медведи, занятые ловлей лосося; рыжие рыси, в одиночестве исследующие Новый мир… «Дикий Запад» (National Geographic: The Wild West) – документальный телефильм, своеобразный «звериный вестерн», созданный съемочной группой канала National Geographic. Эпическое путешествие в мир нетронутой природы, где и сегодня на внутренних водоемах, в пустынях и горах эти дикие существа по-прежнему живут в местах своего изначального обитания.
01. Золотая лихорадка / Gold Rush
02. Звериный вестерн / True Grit
Горы, высокие скалистые горы, окружив словно частоколом, они охраняют сердце нашего дикого запада. Это эпический спектакль, где бандиты и герои одиночки, сталкиваются лицом к лицу. А добропорядочные поселенцы стараются держаться подальше, в этих краях требуется твердость характера что бы выжить.
03. Ровно в полдень / High Noon
Пустыня она больше чем вы себе представляете и здесь хуже чем в аду, мы пытаемся покорить её, подчинить её, но она не поддается. Её обитателям приходится быть бандитами, героями, перебежчиками, преступниками. Среди них есть хорошие, плохие, и дикие.
Качество видео: HDTVRip
Формат видео: AVI
Видео кодек: XviD
Аудио кодек: AC3
Видео: 720x400 25fps 1800 Kbps
Аудио: AC3 2 ch, 48 kHz 192kbps

MediaInfo:

Формат : AVI
Формат/Информация : Audio Video Interleave
Размер файла : 645 Мбайт
Продолжительность : 45 м.
Общий поток : 2002 Кбит/сек
Программа кодирования : VirtualDubMod 1.5.10.3 | www.virtualdub-fr.org || (build 2550/release)
Библиотека кодирования : VirtualDubMod build 2550/release
Видео
Идентификатор : 0
Формат : MPEG-4 Visual
Профиль формата : Advanced Simple@L5
Параметр BVOP формата : 2
Параметр QPel формата : Нет
Параметр GMC формата : Без точки перехода
Параметр матрицы формата : Default (H.263)
Идентификатор кодека : XVID
Идентификатор кодека/Подсказка : XviD
Продолжительность : 45 м.
Битрейт : 1800 Кбит/сек
Ширина : 720 пикселей
Высота : 400 пикселей
Соотношение сторон : 16:9
Частота кадров : 25,000 кадров/сек
Цветовое пространство : YUV
Субдискретизация насыщенности : 4:2:0
Битовая глубина : 8 бит
Тип развёртки : Прогрессивная
Метод сжатия : С потерями
Бит/(Пиксели*Кадры) : 0.250
Размер потока : 580 Мбайт (90%)
Библиотека кодирования : XviD 1.2.1 (UTC 2008-12-04)
Аудио
Идентификатор : 1
Формат : AC-3
Формат/Информация : Audio Coding 3
Расширение режима : CM (complete main)
Параметр Endianness формата : Big
Идентификатор кодека : 2000
Продолжительность : 45 м.
Вид битрейта : Постоянный
Битрейт : 192 Кбит/сек
Каналы : 2 канала
Расположение каналов : Front: L R
Частота : 48,0 КГц
Битовая глубина : 16 бит
Метод сжатия : С потерями
Размер потока : 61,8 Мбайт (10%)
Выравнивание : Разделение по промежуткам
Продолжительность промежутка : 40 мс. (1,00 видеокадр)
Время предзагрузки промежутка : 500 мс.

Внимание! Раздача ведётся путём добавления новых выпусков

Внимание! Раздача ведётся путём добавления новых выпусков; при каждом добавлении создаётся новый торрент. Чтобы начать докачку нового выпуска, пользователям необходимо сделать следующее:
(1) остановить скачивание,
(2) удалить старый торрент у себя из клиента (старые серии удалять не надо),
(3) скачать новый торрент и запустить его у себя в клиенте вместо старого, при этом указать клиенту путь в старую папку куда и должно происходить скачивание новых выпусков.
Ваш клиент при этом должен произвести хеширование (проверку) старой папки (если не производит сам - помогите ему сделать это). В результате он будет докачивать только те выпуски, которых у Вас ещё нет. Старые выпуски при этом не удаляются, а продолжают раздаваться!
Eсли Вы уже удалили старые выпуски, то предотвратить их повторную закачку можно, сняв галочки в соответствующих местах при запуске нового торрента. По возможности, желательно не удалять старые выпуски как можно дольше, чтобы релизёр не только продолжал раздавать старые выпуски, но и смог сконцентрироваться на новых.
За исходник спасибо AlexAndr92


Последний раз редактировалось: skorpionN (2014-03-07 02:14), всего редактировалось 10 раз(а)
[Профиль] [ЛС]

starikE

Пол: Не указан

Стаж: 1 год 7 месяцев

Сообщений: 106

Откуда: Украина Мелитополь

Создавать темы 02-Июн-2013 00:07 (спустя 1 день 11 часов)

[Цитировать]

ну все поехали! качаю, спасибо за рип skorpionN
[Профиль] [ЛС]

skorpionN ®

Пол: Мужской

Стаж: 1 год 9 месяцев

Сообщений: 2179

Откуда: Ukraina

Создавать темы 07-Июн-2013 22:09 (спустя 5 дней)

[Цитировать]

Добавлена 2 серия
[Профиль] [ЛС]

skorpionN ®

Пол: Мужской

Стаж: 1 год 9 месяцев

Сообщений: 2179

Откуда: Ukraina

Создавать темы 03-Мар-2014 16:56 (спустя 8 месяцев 25 дней)

[Цитировать]

Добавлена 1 серия
[Профиль] [ЛС]
Показать сообщения:    
Ответить на тему

Текущее время: 20-Дек 16:36

Часовой пояс: UTC + 7



Вы не можете начинать темы
Вы не можете отвечать на сообщения
Вы не можете редактировать свои сообщения
Вы не можете удалять свои сообщения
Вы не можете голосовать в опросах
Вы не можете прикреплять файлы к сообщениям
Вы не можете скачивать файлы